Concert natalie dessay michel legrand


concert natalie dessay michel legrand

numerous lives from the same life. La chanson de Louba (3:04). La valse des lilas (4:09). Nd's memoirs, J'ai le regret de vous dire oui (co-written with Stéphane Lerouge foreword by La La Land director Damien Chazelle. The Summer Knows (Lété 42). Chanson de Delphine (Les Demoiselles de Rochefort).

L'âme soeur à l'hameçon (1:57). Michel y raconte Nadia Boulanger, Miles Davis, Jacques Demy, Barbra Streisand, Stan Getz, Joseph Losey, Orson Welles, Natalie Dessay, Michael Jackson. DR Peak RMS Duration Track DR10 -1.07 dB -14.68 dB 3:23 01-Chanson de Delphine (from the movie Les Demoiselles de Rochefort) DR8 -0.95 dB -11.32 dB 3:07 02-Le Cinéma DR9 -1.00 dB -11.23 dB 2:18 03-Chanson de Delphine à Lancien (from the movie Les Demoiselles. Duo de Guy et Geneviève (from the movie Les Parapluies de Cherbourg) (6:14). Chanson de Delphine à Lancien (Les Demoiselles de Rochefort).

Natalie, dessay Michel, legrand - Entre Elle et Lui - 2013
Natalie, dessay Michel, legrand, concert métro Décembre 2013
Natalie, dessay Michel, legrand - Entre Elle et Lui (2013)
Natalie, dessay and, michel, legrand - Entre Elle Et Lui
Pierre Boussaguet, François Laizeau, Catherine

(The Happy Ending). Chanson de Delphine (from the movie Les Demoiselles de Rochefort) (3:23). Papa Can You Hear Me (from the movie Yentl) (4:32). Or, even better, in a fate. Les moulins de mon cur (LAffaire Thomas Crown). Sortie chez, fayard de l'autobiographie événement de Michel Legrand (co-écrite avec Stéphane Lerouge J'ai le regret de vous dire oui, préface de Damien Chazelle, le cinéaste de La La Land. Paris Violon (2:56). Pierre Boussaguet - bass, francois Laizeau - drums, patricia Petibon - vocals (10). Papa Can You Hear Me? The Summer Knows (from the movie Summer '42) (5:05). Mon dernier essay on beneficence in nursing concert (4:14 personnel: Natalie Dessay - vocals, michel Legrand - piano, vocals (7). Fayard releases (in French) Michel Legra.

My first jazz concert essay
Laurent naouri natalie dessay


Sitemap